Absolute 80s Flac


Death Comes Ripping (The Misfits) Wraith is: Matt Sokol - Vocals & Guitars Mike Szymendera - Drums Chris Petkus - Bass Recorded, mixed and mastered by CJ Rayson. In other words, I'm hearing what I. Listen to 320KB Plus here on TuneIn! Listen anytime, anywhere!. Download Absolute-Music Torrent at TorrentFunk. 50+ videos Play all Mix - [HQ Music] - The Absolute Sound - Best audiophile music collection 2018 - TD Media YouTube "Inner Bells" MAYO NAKANO PIANO TRIO LIVE 4K Video 96kHz 24-bit / 192kHz. Name (Order by: Uploaded, Size, ULed by, SE, LE) View: Single / Double. Absolute Valentine is back, and he's here to take down the Corp. Download Billy Squier Absolute Hits Fast and for Free. At the bottom of the Absolute Radio page I linked to: 'Lossless Streaming Trial (OGG-FLAC) We are currently broadcasting our services without compression using OGG-FLAC technology. Omega by Absolute Valentine, released 19 April 2019 1. The Curse 5. Keep Your Head Up by Ben Howard. There is a slight difference in sound when the flac/mp3 music are compared apples to apples. New Killer Star 17. 2-3CD-FLAC-2009-LoKET. VA-Absolute 00s-3CD-FLAC-2012-LoKET. rar VA-Absolute 80s-3CD-FLAC-2008-LoKET. Meic Stevens. Absolute 80's, Vol. Or, say blu-ray over dvd. Velvet Goldmine. I Cant Give Everything Away. At the Stake 7. Mike Rogers - Just A Story05. Uploaded 08-08 2015, Size 776. AccurateRip summary [AccurateRip ID: 003e4aa4-03afd2cd-3912bc15] disk not present in database. Listen in your car. Acid Mass 3. Artist: Various Artists Title Of Album: Absolute Music 80 Year Of Release: 2016 Label (Catalog#): Warner Music [5054197063824] Country: International Genre: Pop, Indie, Dance Quality: FLAC (tracks) Bitrate: Lossless Time: 2:33:47 Full Size: 1. Title Of Album: Absolute Music 80 Release Date: 2016 Location: Various Label: Warner Music Genre: R&B, Pop, Dance Quality: FLAC | lossless (tracks) Length: 02:33:46 min Tracks: 44 Total Size: 1 Gb WebSite: wikipedia Tracklist: DISC 1 01. Discover the best Pre-Cut Quilt Squares in Best Sellers. Listen through your smartphone or tablet. #N#The Official UK Top 40 Singles Chart - 18th-December [18-12-2015] - [GloDLS] #N#Monica Code Red [2015] CDRIP. While with some music, FLAC may even reduced the source audios by up to 80%. rar VA-Absolute 80s-2CD-FLAC-2003-LoKET. About Absolute Radio. Autovampir - Behind The Mask Drive Radio Selection Volume 2. Soulful, political, sonically steeped in tradition as well as being dashingly innovative, the Danger Mouse-produced KIWANUKA is a party record with a dark, tortured heart - and one of 2019's best albums. Absolute Garbage is a greatest hits album by American rock band Garbage, released on July 23, 2007 by Geffen Records. Im Afraid Of Americans 13. I found it again after clearing out my CDs, put it on, and realised that I still couldn't part with it - it's like an old friend. Oolong - Back in Time 9. Queen – Another One Bites the Dust 03:35 02. These are the worlds best turntables including the best audiophile turntables un. NEW 2020 Transfer! Meticulously Remastered! Originally posted January 21, 2013 "Pretty In Pink" is a song by the English band The Psychedelic Furs, originally released in 1981 as a single from the band's second album, Talk Talk Talk. flac 27 MB. 0 % Test CRC 1A608037 Copy CRC 1A608037 Copy OK No errors occurred End of status report. Strange Hope Breathe. Title Of Album: Absolute 80's Year Of Release: 2003 Label: EVA Records / EVACD4027 Genre: Pop, Sinthpop, Disco Total Time: 2:30:33 Format: FLAC Quality: Lossless Total Size: 1,08 gb TRACKLIST: CD 1 01. dancevinilocdFLAC es un blog donde se compartirá música dance 80 y 90 con alta calidad como lo es el archivo (FLAC) Free Lossless Audio Codec es un códec de audio que permite que el audio digital sea comprimido sin pérdidas de tal manera que el tamaño del archivo de audio se reduce sin que se pierda ningún tipo de información. Paramount Glamour Myth 5. Our main database does not give the precise date that a record reached the Number 1 spot. While with some music, FLAC may even reduced the source audios by up to 80%. Morgan Willis - Tonight 6. Just Passin' Thru 11. Absolute Woody 5 by Woody Piano Shack, released 10 June 2018 1. The Absolute brand was established in 1986 when the first Absolute Music compilation was released. Roxette - Listen To Your Heart 05:23 45. Its goal is to produce perfect FLAC files by verifying checksums in all steps and being totally paranoid. Here are a few that are working for me. Absolute Beginners 09. Frans - if I Were Sorry 03:07 02. Absolute Radio Classic Rock. dBpoweramp CD Ripper & Music Converter Reference R14 ($38 Windows-only) from Illustrate has added an "Uncompressed" option to its bag of FLAC encoding tricks with release 14. After witnessing the death of the one he loves, he doesn't take bad news lightly. Jennifer Rush - The Power Of Love 04:26 44. If that sounds a bit early on a Sunday for you, then catch the best bits of Jason's show on this handy podcast. Hits of the '80s" album ont he Web's largest and most authoritative lyrics resource. Selection Volume 2 by Drive Radio, released 30 June 2017 1. 77 GiB, ULed. I have the albums you are looking for - Monster Hits - Vol. dancevinilocdFLAC es un blog donde se compartirá música dance 80 y 90 con alta calidad como lo es el archivo (FLAC) Free Lossless Audio Codec es un códec de audio que permite que el audio digital sea comprimido sin pérdidas de tal manera que el tamaño del archivo de audio se reduce sin que se pierda ningún tipo de información. 10 5CD (2018) FLAC available for download on site losslessalbums. In my opinion, not worth it to redo my music to flac. If you are not decoding from a file, you may need to use FL. HiFi Streaming and Lossless Internet Radio Streams - Highres Audio Streaming. Foreigner - I Want To Know What Love Is 05:00 43. 27 MB - 02 - Straight Ahead. 'Absolute Hits' was a budget CD collection which covered all genres of music, I was heavily into '80s pop music at the time of it's release in December 2006, and snapped it up in good old Woolworths (RIP). STHLM1 (alternate mono take) 12. Hash : VnACTP2fDv6wz2Q1LKyoAbsolute 80s Unwind. NekuraDial - Baby Rise 5. HDPinkFloyd 12,172,450 views. Torrent Contents. Ben Noble - Where the Light Comes In (2020) FLAC. Quality: FLAC 16 bit / 44. For those aware of Cindytalk's illustrious industrial heritage - she has collaborated with everyone. At the bottom of the Absolute Radio page I linked to: 'Lossless Streaming Trial (OGG-FLAC) We are currently broadcasting our services without compression using OGG-FLAC technology. Discover online now. VA-Absolute 00s-3CD-FLAC-2012-LoKET. Absolute First Album is the debut studio album by South Korean girl group T-ara. Drive-In Saturday. In my opinion, not worth it to redo my music to flac. The Absolute brand was established in 1986 when the first Absolute Music compilation was released. Song: Rock The Night Album: The Final Countdown Year: 1986 Artist: Europe High Quality - Quality FLAC. (Pop, Dance) [CD] VA - Absolute Music 78-80 (6 CD) - 2015-2016, FLAC (tracks), lossless » Зарубежная поп-музыка (lossless) :: RuTracker. Download Billy Squier Absolute Hits Fast and for Free. wav Peak level 85. Galantis - No Money 3:09 03. Devil's Hour 2. Track Peak [ CRC32 ] [W/O NULL]. London United Kingdom Oldies. Hits of the '80s" album ont he Web's largest and most authoritative lyrics resource. 8 GiB Uploaded 10-06 2014, Size 1. ミカヅキBIGWAVE - Pure Heart 幻シンデレラ 4. America's Ultimate Oldies Channel. Roxette - Listen To Your Heart 05:23 45. The station stays true to its rock roots – and its original frequency – by playing the very best music from the last 40 years which means we don’t do manufactured pop or R&B. Listen through your smart speaker. Filename C:\EAC\Elvis Costello\Elvis Costello - 2007 - My Aim Is True (Deluxe Edition) - FLAC\Disc 1\21 Waiting for the End of the World (Pathway Studios demo). Just click on the logo of your favorite internet radio station and the online radio player will start playing immediately. What can be said without any doubt is that in the 1980's they released two absolute classic albums: A Walk Across The Rooftops (1984) and Hats (1989). This will no doubt be pleasing for all you audiophiles out there but do bear the following points in mind: This is a trial - we don't guarantee it to be perfect!. Audio Research used to recommend a flat 600 hours break-in, but apparently that scared some customers off, so it has modified its recommendation to say the amp sounds good right out of the box and gets even better with some indeterminate amount of break-in—which is true, although it still opens up and relaxes noticeably with time. Air Supply - All Out Of Love 04. Flic en Flac is some 40 kilometres from the airport. VA-Absolute 00s-3CD-FLAC-2012-LoKET. flac 30 MB; 03 Psychedelic Furs, The - Pretty in Pink. Never miss an exclusive competition, show or event as the ‘Absolute Radio Recommends’ feed keeps you in-the. rar VA-Absolute 2002-2CD-FLAC-2002-LoKET. 99, 99% percent of their songs rock. queen-absolute greatest hits 2009 We Will Rock You (Brian May) We Are The Champions (Freddie Mercury) Radio Ga Ga (Roger Taylor) Another One Bites The Dust (John Deacon) I Want It All (Queen) Crazy Little Thing Called Love (Freddie Mercury) A Kind Of Magic (Roger Taylor). A car rental service is available at Luxury Westwood Apartment+pool. Thanks for your page man, keep up the good work and keep on adding more stuff, I like what you do. Rebel Rebel. Devil's Hour 2. Flac (tracks) | New Wave, Synthpop | 1CD | 02:46:49 | 1. Owned by iHeartMedia and often New York's top-rated radio station, WLTW 106. The Wizard (Theme From Top Of The Pops) 04. More Billy Squier Absolute Hits available on the site. Roxette - Listen To Your Heart 05:23 45. (Pop, Dance) [CD] VA - Absolute Music 78-80 (6 CD) - 2015-2016, FLAC (tracks), lossless » Зарубежная поп-музыка (lossless) :: RuTracker. rar VA-Absolute 2002-2CD-FLAC-2002-LoKET. 1990 (Flac) The Bottom Line New York City July 23, 1990. Absolute Power 10. Absolute Disney Vol. It allows you to discover real music with Absolute Radio, listen to undisputed classics with Absolute 80s, Absolute Radio 90s and Absolute Radio 00s and enjoy the rock authority of Absolute Classic Rock. A massive influence on everyone from Powell to Helena Hauff, DAF are among the most. Kemistry & Storm's DJ-Kicks will always be an extra special moment in the history of Drum & Bass and thanks to its enduring relevance and cult status it holds an important place in the DJ-Kicks archive. Back In Time 14. absolute radio - geoff lloyd with annabel port. 49 gb Flac (tracks) | New Wave, Synthpop | 1CD | 02:46:49 | 1. The Midnight - The Equalizer (Not Alone) 4. ミカヅキBIGWAVE - Pure Heart 幻シンデレラ 4. Available on DAB. Label: EMI-Capitol Special Markets ‎– 72435-23035-2 6. Acid Mass 3. Name (Order by: Uploaded, Size, ULed by, SE, LE) View: Single / Double. Compilation Années 80. CD3 (19 / 80:30) 39. Fans of FLAC swill enjoy the high-resolution streaming quality afforded by Amazon Music HD and its library of Ultra HD songs. Absolute Valentine is back, and he's here to take down the Corp. rar VA-Absolute 80s-3CD-FLAC-2008-LoKET. rar VA-Absolute 2001-2CD-FLAC-2001-LoKET. Horizons 6. com you can download lossless music in popular formats FLAC, APE, ALAC, MP3, M4A. If you flag me (@andybob) when you find one, I'll add it in to this lis…. Sympathy for the devil is one of the greatest songs. Direct download via magnet link. lossless internet radio streaming in FLAC! If this is your first visit, be sure to check out the FAQ by clicking the link above. ru: The Beatles. 2 GB December 27, 2018. Similar Stations. 1kHz Audio Channels: 2. 2-3CD-FLAC-2009-LoKET. Galantis - No Money 3:09 03. Rebel Rebel. Listen through your radio. AccurateRip summary [AccurateRip ID: 003e4aa4-03afd2cd-3912bc15] disk not present in database. I have the albums you are looking for - Monster Hits - Vol. rar VA-Absolute 80s Vol. People also like. HiFi Streaming and Lossless Internet Radio Streams - Highres Audio Streaming. There is a slight difference in sound when the flac/mp3 music are compared apples to apples. Home of The Beatles, Stones and Motown. 5 includes support for FLAC Internet Radio. The Police - Every Breath You Take The Singles (1986) [FLAC] VA - Joel Whitburn Presents Billboard Number 1s The 80s (2004) [FLAC] VA - Don't Come Back From The Moon (2017) [FLAC] VA - Tomorrowland 2012 The Book Of Wisdom (2012) [FLAC] Ozzy Osbourne - Blizzard Of Ozz (2011) [FLAC]. Absolute Radio Classic Rock. The Cars - Drive 03:54 40. Track Peak [ CRC32 ] [W/O NULL]. The Curse 5. Our main database does not give the precise date that a record reached the Number 1 spot. Absolute Truth rights the ship with enough whistling milkman melodies to sink the Titanic. HiResTracks. album: Springbok - Country Love Songs - Vol 2. Torrent Contents. 1990 (Flac) The Bottom Line New York City July 23, 1990. Similar Stations. Resurrect 2. ALTA CALIDAD DE SONIDO. Im Afraid Of Americans 13. 1kHz Audio Channels: 2. cue), lossless Жанр: Synth-pop/ Pop / Electronic Label: Ministry Of Sound Recordings Ltd. '80's style neon-lit future pop with big, warm analog synths and a sugared edge from members of Someone Still Loves You Boris Yeltsin. VA - Absolute Hits Alternative 80s (2007) FLAC Soup. Roxette - Listen To Your Heart 05:23 45. It allows you to discover real music with Absolute Radio, listen to undisputed classics with Absolute 80s, Absolute Radio 90s and Absolute Radio 00s and enjoy the rock authority of Absolute Classic Rock. No Way Out 9. flac 24 MB; 06 Prefab Sprout - When Love Breaks Down. Covering United Kingdom radio stations in the United Kingdom and British radio stations in Great Britain. rar VA-Absolute 60s-3CD-FLAC-2007-LoKET. ''Absolute Treasures'' is the expanded reissue of the soundtrack for the 40th anniversary of the 1975 cult musical film ''The Rocky Horror Picture Show'' starring Tim Curry, Susan Sarandon, and Meat Loaf. You can now listen live and on-demand to all your favourite shows, podcasts and playlists in one place. Definitely one of the very best bands from UK. Strange Hope Breathe. Slow Burn 15. Absolute Valentine - Extreme Drift 7. Autovampir - Behind The Mask Drive Radio Selection Volume 2. Τ Λ Я Λ - Summer of Love *** UPDATE Jan. Tina Turner - Whats Love Got to Do with it 03:18. Title Of Album: Absolute 80's Year Of Release: 2003 Label: EVA Records / EVACD4027 Genre: Pop, Sinthpop, Disco Total Time: 2:30:33 Format: FLAC Quality: Lossless Total Size: 1,08 gb TRACKLIST: CD 1 01. This is one album you can pick up and enjoy for relatively less money. Title: Kontor Top of the Clubs: Electric 80s Year Of Release: 2019 Label: Kontor Records (Edel) Genre: Synth-pop, New Wave, Pop Rock, Electro, Dance Quality: CBR 320 kbps / FLAC (tracks) Total : 2:46:49 Total Size: 390 mb / 1. Please add others to this thread as you come across them. Available on DAB. 1 & 2 (recently bought 2 unopened copies!)MEGADANCE - all 3, Eurobeat ALL Volumes, High-Energy all volumes and Cafe Society (Full Album). Springbok - Blue Lights in My Eyes. Absolute Radio (originally Virgin 1215) is one of the UK's three Independent National Radio stations. The Midnight - The Equalizer (Not Alone) 4. Phaserland - Night Rain 8. 80 Peak level 100. Driven By 80s Anthems - 100 Essential Driving Songs 2018 [Flac-Lossless] 2. Listen through your smartphone or tablet. A beautiful and uplifting selection of electronic pieces, inspired by late 70s and early 80s library music. Amazon Prime members get a great deal on Amazon Music HD for just $12. Just a few new posts Metal on Metalheads! Repaired Links-Repaired. The Bay City Rollers - Absolute Rollers: The Very V. {RoughJustice2k19} 3. Absolute Radio: Podcasts in Family. After orchestrating the murder of his one and only love, as a way of forcing him off. 9 % Track quality 100. Inspired by one of his musical influences Jon Hopkins, Assonance has created a fantastic fusion of soft upright pianos with menacing bass lines, all recorded through his Thermionic Culture Vulture to add a hint of extra aggression. I found it again after clearing out my CDs, put it on, and realised that I still couldn't part with it - it's like an old friend. Torrent Contents. The biggest songs from the last decade. 49 gb Flac (tracks) | New Wave, Synthpop | 1CD | 02:46:49 | 1. 70 Peak level 99. The top 10 best audiophile turntables and record players on the market. rar VA-Absolute 80s-2CD-FLAC-2003-LoKET. Flower Power Radio. But not like how superior the SACD is over regular CD. Paramount Glamour Myth 5. Absolute Number One 1990-1994 - Студийный альбом от Various Artists. In other words, I'm hearing what I. Soulful, political, sonically steeped in tradition as well as being dashingly innovative, the Danger Mouse-produced KIWANUKA is a party record with a dark, tortured heart - and one of 2019's best albums. rar VA-Absolute 60s-3CD-FLAC-2007-LoKET. Quality: FLAC 16 bit / 44. Absolute Radio 80s. 10 [5CD] (2018) FLAC Style: Pop, Dance, Club Release Date: 2018 RAR / ZIP Size: 2270 MB Tracklist: CD1 01 Wham! - I'm Your Man 04:04 02 Dana Winner - Ik Hou Van Jou 03:33 03 Mark Ronson Feat. zk-] disk not present in database. The song inspired the 1986 film of the same name and a re-recorded version of the song was included on the film's. Track Peak [ CRC32 ] [W/O NULL]. INTERNET ORDER - Get Me Wack 6. Name (Order by: Uploaded, Size, ULed by, SE, LE) View: Single / Double. The Curse 5. Listen to all Rock stations for free now on radio. Niky Nine feat. Wellcomin 2. #N#David Bowie The 100 Greatest Songs (2015) 320 KBPS. Drive-In Saturday. Home Stations Oldies Absolute Radio 60s. Plated and pressed on 200-gram vinyl by Quality Record Pressings!. These models offer the absolute peak in quality components, cartridges, tonearms, and everything else you'd expect to make your vinyl come to life. mp3 flac Gus Rhein - I Love This Country download album free. 0 % Test CRC 53F7F9D0 Copy CRC 53F7F9D0 Accurately ripped (confidence 17) [289478C7] Copy OK Track 22. At the bottom of the Absolute Radio page I linked to: 'Lossless Streaming Trial (OGG-FLAC) We are currently broadcasting our services without compression using OGG-FLAC technology. Botnit - Stay The Night 10. The flac is of course better. Scene FLAC Music, muzik, musik scene Club, sets mix, music mp3s, WEB 320kbps Tracks, Private FTP Server, Muaix VIP, Dance Hits, 90s Various artists VA, EDM Live Radio, Music Stream, Electro House, Club Dance Music Mix, Electro House, Deep House, Chill Out, Trap, Bounce and much more. - The Very Best Of ELO flac download Conny & Danny Fabry - Een Leven Vol Muziek flac download. Absolute Valentine is back, and he's here to take down the Corp. As Mauritius is subject to the South East trade wind, the South and South Eastern part of the island are subject to rain during the rainy season, however Flic en Flac, being situated on the western coast, we enjoy sunshine almost all the year round and the sea remains calm. Springbok - Blue Lights in My Eyes. Sandy was very helpful in getting us settled and set up with transport. Tusontay Upload ---o0o--- Nơi dành lưu trữ những Topic upload & giải đáp vướng mắc của downloader. Plated and pressed on 200-gram vinyl by Quality Record Pressings!. DJ-mixed flow of modern & classic rock, world music, electronica, and more - in ultra HiFi sound, with HD slideshow. m3u files from various sources. Filename C:\EAC\Elvis Costello\Elvis Costello - 2007 - My Aim Is True (Deluxe Edition) - FLAC\Disc 1\21 Waiting for the End of the World (Pathway Studios demo). Audio Research used to recommend a flat 600 hours break-in, but apparently that scared some customers off, so it has modified its recommendation to say the amp sounds good right out of the box and gets even better with some indeterminate amount of break-in—which is true, although it still opens up and relaxes noticeably with time. Absolute Valentine - Road Part 2 5. What player do you use to test the ogg/flac stream actually works ? Can ffmpeg (aka avconv) play this stream for you ?. Listen through your smart speaker. Here are a few that are working for me. Trilogy - Not Love (original extended version). Absolute Radio 90s. Known as a Free Lossless Audio Codec, FLAC is widely used for lossless music distributing among audiophiles. Strange Hope Breathe. Label: Absolute (2) - 5054197063824,Warner Music Sweden - 5054197063824 • Series: Absolute Music (6) - 80 • Format: 2x, CD Compilation • Country: Sweden. 1 % Track quality 100. Holiday Rap 80s Greatest Hits. [모음] VA - Absolute Hits of The 80s (2015) Mp3 [320 kbps] 01. The station stays true to its rock roots – and its original frequency – by playing the very best music from the last 40 years which means we don’t do manufactured pop or R&B. Station website. dancevinilocdFLAC es un blog donde se compartirá música dance 80 y 90 con alta calidad como lo es el archivo (FLAC) Free Lossless Audio Codec es un códec de audio que permite que el audio digital sea comprimido sin pérdidas de tal manera que el tamaño del archivo de audio se reduce sin que se pierda ningún tipo de información. #N#The Official UK Top 40 Singles Chart - 18th-December [18-12-2015] - [GloDLS] #N#Monica Code Red [2015] CDRIP. Artist: Various Artists Title Of Album: Absolute 80's Year Of Release: 2003 Label: EVA Records / EVACD4027 Genre: Pop, Sinthpop, Disco Total Time: 2:30:33 Format: FLAC Quality: Lossless Total Size: 1,08 gb TRACKLIST: CD 1 01. NEW 2020 Transfer! Meticulously Remastered! Originally posted January 21, 2013 "Pretty In Pink" is a song by the English band The Psychedelic Furs, originally released in 1981 as a single from the band's second album, Talk Talk Talk. Various Artists Fela Kuti & Egypt 80. Not logged in. Absolute Garbage is a greatest hits album by American rock band Garbage, released on July 23, 2007 by Geffen Records. Roxette - Listen To Your Heart 05:23 45. Onlyuithinkabt 6. Alan Walker - Faded 03:34. absolute radio - geoff lloyd with annabel port. Listen through your smart speaker. flac Alisha - Baby Talk (Special Remix). More! More! More! An absolute "must-have" of the '80s, this 1983 album reached No. RealPlayer, Windows Media Player, Streaming mp3, QuickTime and Ogg Vorbis software is required. This is an encoder script for EAC "Test & copy image" mode. The best of Absolute Radio. {RoughJustice2k19} 3. The biggest concert tickets, comedy tickets and theatre tickets available online today!. Available on DAB. Add the Bluesound Pulse Wireless Subwoofer for a very serious 2. Download Absolute-Music Torrent at TorrentFunk. Starship - Nothings Gonna Stop Us Now 04:21 42. The Internet's most up-to-date list of live links for UK radio stations simultaneously broadcasting on the web. Similar Stations. Hometime with Bush & Richie. Title Of Album: Absolute 80's Year Of Release: 2003 Label: EVA Records / EVACD4027 Genre: Pop, Sinthpop, Disco Total Time: 2:30:33 Format: FLAC Quality: Lossless Total Size: 1,08 gb TRACKLIST: CD 1 01. Absolute Radio 60s. Jump They Say 10. Catch all the latest Competitions news from Absolute Radio. For those aware of Cindytalk's illustrious industrial heritage - she has collaborated with everyone. Gimme Hope Jo'anna 80s Hits, 60's 70's 80's 90's Hits, 80s Greatest Hits, Hits of the 80's. Absolute Radio was unleashed on the airwaves on Monday 29th September 2008 with a mission to help listeners around the UK to discover real music. In The 42nd Street 7. She Belongs To Me. I have the albums you are looking for - Monster Hits - Vol. No Way Out 9. Absolute Radio 70s. DOWNLOAD From : Rapidgator, Uploaded, Katfile, Mexashare, …. Niky Nine feat. STHLM1 (alternate mono take) 12. Listen in your car. 0 % Test CRC 8ECAE3A7 Copy CRC 8ECAE3A7 Copy OK Track 15 Filename C:\Torrent Seeds\WWF The Music Vol. Absolute Radio. rar VA-Absolute 80s-3CD-FLAC-2008-LoKET. BURNING THE GROUND EXCLUSIVE 1986. Quality: FLAC 16 bit / 44. Never descending into parody or obvious re-enactment Brooks is the absolute master in this field. Ik Ben De Man flac download E. Robert Rainey CYNDI LAUPER Strawberry Fields Forever - Duration: 9:59. Download Absolute-Music Torrent at TorrentFunk. VA - Beasts of Metal - The Best Heavy Metal Hits Of 2015 (2016) MP3 [320 kbps]. This class wraps the FLAC__StreamDecoder. DISPONIBLE EN DESCARGA ONLINE,. 01 Adam and the Ants - Antmusic. absolute radio - geoff lloyd with annabel port. Our main database does not give the precise date that a record reached the Number 1 spot. Absolute Radio (originally Virgin 1215) is one of the UK's three Independent National Radio stations. 4 out of 5 stars 80. Absolute Radio 80s. Drive-In Saturday. Tech N9ne - Absolute Power 2002. Uploaded 08-08 2015, Size 776. Extreme Drift 5. In other words, I'm hearing what I. The Hunt 8. VA-Absolute 00s-3CD-FLAC-2012-LoKET. Queen – Another One Bites the Dust 03:35 02. Listen to more stations from Absolute Radio. Slow Burn 15. Various ‎– Entertainment Weekly Absolute 80s. Capital FM London. View credits, reviews, tracks and shop for the 2008 CD release of Absolute 80's on Discogs. ALTA CALIDAD DE SONIDO. Discover what's missing in your discography and shop for Future 80's Records releases. ミカヅキBIGWAVE - Pure Heart 幻シンデレラ 4. Absolute Truth rights the ship with enough whistling milkman melodies to sink the Titanic. Kemistry & Storm's DJ-Kicks will always be an extra special moment in the history of Drum & Bass and thanks to its enduring relevance and cult status it holds an important place in the DJ-Kicks archive. 8 Radio Jackie. flac Aretha Franklin & George Michael - I Knew You Were Waiting (For Me) (Extended Remix_batch2. After witnessing the death of the one he loves, he doesn't take bad news lightly. FM - 50s and 60s. Inspired by one of his musical influences Jon Hopkins, Assonance has created a fantastic fusion of soft upright pianos with menacing bass lines, all recorded through his Thermionic Culture Vulture to add a hint of extra aggression. ru: The Beatles. queen-absolute greatest hits 2009 We Will Rock You (Brian May) We Are The Champions (Freddie Mercury) Radio Ga Ga (Roger Taylor) Another One Bites The Dust (John Deacon) I Want It All (Queen) Crazy Little Thing Called Love (Freddie Mercury) A Kind Of Magic (Roger Taylor). 49 gb Flac (tracks) | New Wave, Synthpop | 1CD | 02:46:49 | 1. Flower Power Radio. Velvet Goldmine. Or, say blu-ray over dvd. flac [CTDB TOCID: gV9VUEUrr6BqnsatWsOZZVTg. The top 10 best audiophile turntables and record players on the market. And Cline even tries out reggae. AccurateRip summary [AccurateRip ID: 003e4aa4-03afd2cd-3912bc15] disk not present in database. Frans - if I Were Sorry 03:07 02. - The Very Best Of ELO flac download Conny & Danny Fabry - Een Leven Vol Muziek flac download. The third LP from London singer-songwriter Michael Kiwanuka showcases an artist on a spectacular upward trajectory. Driven By 80s Anthems - 100 Essential Driving Songs 2018 [Flac-Lossless] 2. Star Rider 2. rar VA-Absolute 60s-3CD-FLAC-2007-LoKET. VA - Beasts of Metal - The Best Heavy Metal Hits Of 2015 (2016) MP3 [320 kbps]. Oh! You Pretty Things. Crowded House - Do not Dream Its Over 03:55 46. 1000 Klassiekers De Absolute Top Vol. Uploaded 08-08 2015, Size 776. Hometime with Bush & Richie. Never miss an exclusive competition, show or event as the ‘Absolute Radio Recommends’ feed keeps you in-the. Smart TV (the relevant link for your make and model of TV will appear when 'lsn. Neon Nox vs Oscillian - Shoguns 8. kissmenerdygirl - I'm so attracted to you 2. Listen through your radio. EMBED (for wordpress. Download Absolute-Music Torrent at TorrentFunk. Volt Age feat. Offshore Music Radio. Niky Nine feat. Absolute Radio Classic Rock. FLAC allows users to maintain files at the original quality of the media, making it ideal for backing up audio data since hard copies of audio are susceptible to. Strange Hope Breathe. The bleached-blonde maniac's work in Toxic Holocaust is now so seminal that there's a young band. Everything from Foo Fighters to David Bowie, Oasis, Green Day, Blur, Coldplay, Kings of Leon, Adele, Queen, and more. The promoting anticipate Absolute 80s began with focused on inspecting at 80s occasions, for example. Death Comes Ripping (The Misfits) Wraith is: Matt Sokol - Vocals & Guitars Mike Szymendera - Drums Chris Petkus - Bass Recorded, mixed and mastered by CJ Rayson. War of Aggression 6. 0 % Test CRC 53F7F9D0 Copy CRC 53F7F9D0 Accurately ripped (confidence 17) [289478C7] Copy OK Track 22. Phaserland - Night Rain 8. If that sounds a bit early on a Sunday for you, then catch the best bits of Jason's show on this handy podcast. 50+ videos Play all '80s Sing-Alongs YouTube Music Phil Collins, Air Supply, Elton John, Lobo, Bee Gees - Best Soft Songs 2019 - Duration: 1:26:17. New Killer Star 17. Video Nasties Video Nasties take hard hitting riffs and add an injection of melancholy and up-tempo rhythms, setting them apart from their peers in the North West scene. Inspired by one of his musical influences Jon Hopkins, Assonance has created a fantastic fusion of soft upright pianos with menacing bass lines, all recorded through his Thermionic Culture Vulture to add a hint of extra aggression. flac Bananarama - Cruel Summer. America's Ultimate Oldies Channel. VA - Joel Whitburn Presents Billboard Number 1s The 80s (2004) [FLAC] VA - Don't Come Back From The Moon (2017) [FLAC] VA - Tomorrowland 2012 The Book Of Wisdom (2012) [FLAC] Styx - Classics Volume 15 (1987) [FLAC] Jimi Hendrix - The Essential Jimi Hendrix Volumes One And Two (1989) [FLAC]. A beautiful and uplifting selection of electronic pieces, inspired by late 70s and early 80s library music. SE LE; Audio Queen - Live at Wembley' 86 (1992) FLAC Soup. Nina - Counting Stars 4. cue Битрейт аудио: lossless. Absolute Radio 80s. Catch all the latest Competitions news from Absolute Radio. VA - Joel Whitburn Presents Billboard Number 1s The 80s (2004) [FLAC] VA - Don't Come Back From The Moon (2017) [FLAC] VA - Tomorrowland 2012 The Book Of Wisdom (2012) [FLAC] Styx - Classics Volume 15 (1987) [FLAC] Jimi Hendrix - The Essential Jimi Hendrix Volumes One And Two (1989) [FLAC]. But not like how superior the SACD is over regular CD. She Belongs To Me. Rock, Pop and hits from the British Rock scene. flac valerie_claire-im_a_model. Alan Walker - Faded 03:34 03. Join Absolute Radio's Dave Berry as he chats to a different guest each episode to talk about all things involved in being a dad, sharing their experiences of fatherhood (or motherhood in some guests' cases), their relationship with their own fathers, as well gathering some advice (or 'Dad-vice') along the way. The Police - Every Breath You Take The Singles (1986) [FLAC] VA - Joel Whitburn Presents Billboard Number 1s The 80s (2004) [FLAC] VA - Don't Come Back From The Moon (2017) [FLAC] VA - Tomorrowland 2012 The Book Of Wisdom (2012) [FLAC] Ozzy Osbourne - Blizzard Of Ozz (2011) [FLAC]. Your Passenger Forever 7. C:\Users\Администратор\Music\David Bowie\2010 - Greatest Hits Part1 CD1\David Bowie - Greatest Hits Part1 CD1. VA-Absolute 00s-3CD-FLAC-2012-LoKET. Discover the best Pre-Cut Quilt Squares in Best Sellers. kissmenerdygirl - I'm so attracted to you 2. Absolute Radio 80s. The Internet's most up-to-date list of live links for UK radio stations simultaneously broadcasting on the web. 16-bit FLAC Preview Marbella Collection 2018 (Mixed by DJ Colin Francis) - Ministry of Sound (Explicit) Marbella Collection 2018 (Mixed by DJ Colin Francis) - Ministry of Sound (Explicit) Various Artists 2018 From £8. Ik Ben De Man flac download E. Soulful, political, sonically steeped in tradition as well as being dashingly innovative, the Danger Mouse-produced KIWANUKA is a party record with a dark, tortured heart - and one of 2019's best albums. Discover online now. Artist: Various Artists Title Of Album: Absolute Music 80 Year Of Release: 2016 Label (Catalog#): Warner Music [5054197063824] Country: International Genre: Pop, Indie, Dance Quality: FLAC (tracks) Bitrate: Lossless Time: 2:33:47 Full Size: 1. Mastered from the original analog tape — now available cut at 45 RPM! by Ryan Smith at Sterling Sound. Here at Allflac. (Pop, Dance) [CD] VA - Absolute Music 78-80 (6 CD) - 2015-2016, FLAC (tracks), lossless » Зарубежная поп-музыка (lossless) :: RuTracker. Jual Absolute Acoustic (2011) [FLAC], R047, Ronin47, Kaskus, Bukalapak, Tokopedia. It splits the WAV image to WAV singletracks according to the EAC CUE and encodes them to FLACs. [모음] VA - Absolute Hits of The 80s (2015) Mp3 [320 kbps] 01. rar VA-Absolute 80s-3CD-FLAC-2008-LoKET. The Curse 5. flac 24 MB; 06 Prefab Sprout - When Love Breaks Down. Sandy was very helpful in getting us settled and set up with transport. Release Name: VA-Absolute_Seventies-2CD-FLAC-2003-FAWNArtist: VAAlbum: Absolute SeventiesGenre: PopYear: 2003Tracks: 20Duration: 02:13:09Size: 943. zk-] disk not present in database. 50+ videos Play all '80s Sing-Alongs YouTube Music Phil Collins, Air Supply, Elton John, Lobo, Bee Gees - Best Soft Songs 2019 - Duration: 1:26:17. Absolute Radio: Podcasts in Family. In other words, I'm hearing what I. At the bottom of the Absolute Radio page I linked to: 'Lossless Streaming Trial (OGG-FLAC) We are currently broadcasting our services without compression using OGG-FLAC technology. Absolute Radio: Stations in Family. New Killer Star 17. Ghost Box pursue that Paul Weller pearl with the return of tweetronic ticklers Plone, some 20 years after their sole album for Warp. The Curse 5. Foreigner - I Want To Know What Love Is 05:00 43. The album consisted of 80's rock, disco, pop, and ballads. Ik Ben De Man flac download E. FM - 50s and 60s. 01 Adam and the Ants - Antmusic. Plated and pressed on 200-gram vinyl by Quality Record Pressings!. Offshore Music Radio. Diamond Dogs. The flac is of course better. 8 Radio Jackie. schedule a cloud recording of Absolute 80s for now or for later with Radio Recorder. 10 [5CD] (2018) FLAC Style: Pop, Dance, Club Release Date: 2018 RAR / ZIP Size: 2270 MB Tracklist: CD1 01 Wham! - I'm Your Man 04:04 02 Dana Winner - Ik Hou Van Jou 03:33 03 Mark Ronson Feat. Listen through your smartphone or tablet. You can now listen live and on-demand to all your favourite shows, podcasts and playlists in one place. At the Stake 7. - leo-bogert/perfect-flac-encode. AccurateRip summary [AccurateRip ID: 003e4aa4-03afd2cd-3912bc15] disk not present in database. ''Absolute Treasures'' is the expanded reissue of the soundtrack for the 40th anniversary of the 1975 cult musical film ''The Rocky Horror Picture Show'' starring Tim Curry, Susan Sarandon, and Meat Loaf. Download VA - Absolute Music 78-80 (6 CD) - 2015-2016, FLAC (tracks), lossless via torrent or magnet link. #N#The Official UK Top 40 Singles Chart - 18th-December [18-12-2015] - [GloDLS] #N#Monica Code Red [2015] CDRIP. 95 Add to crate. (UK), EMI TV Catalog#: MOSCD 201, 5051275029925 Format: 3xCD, Compilation Аудио кодек: FLAC Тип рипа: tracks+. Absolute Radio 90s. Absolute Garbage is a greatest hits album by American rock band Garbage, released on July 23, 2007 by Geffen Records. Absolute Radio 70s. Otto Knows feat. Virgin Radio Viva (cancelled) [ edit ] Virgin Radio Viva, which was due to launch on the new 4 Digital Group platform (which ultimately never launched), was due to be a popular music station aimed at 15- to 29-year-old females. Loitering With Intent 12. Ministry Of Sound - Anthems Electronic 80`s (3 CD) - 2009, FLAC (tracks+. torrentTitle: Absolute 80s UnwindArtist: CollectionYear: 2017Genre: New Wave, Blue-Eyed Soul, Synthpop, Alternative. 0 % Test CRC 53F7F9D0 Copy CRC 53F7F9D0 Accurately ripped (confidence 17) [289478C7] Copy OK Track 22. All in FLAC (free lossless audio codec) with excellent sound quality. Tina Turner – Whats Love Got to Do with it 03:18 03. cue), lossless Жанр: Synth-pop/ Pop / Electronic Label: Ministry Of Sound Recordings Ltd. Post 3361637 - Guitars101 is an online forum community where guitarists discuss playing techniques, lessons & tabs, how to record, gear reviews including amplifiers, microphones, pedals & more. 0 % Test CRC 53F7F9D0 Copy CRC 53F7F9D0 Accurately ripped (confidence 17) [289478C7] Copy OK Track 22. Soft Cell : Torch (12 Version) 00:08. Absolute Radio Classic Rock. 1kHz Audio Channels: 2. Springbok - Blue Lights in My Eyes. This will no doubt be pleasing for all you audiophiles out there but do bear the following points in mind: This is a trial - we don't guarantee it to be perfect!. About Absolute Radio. NO MEMORY OF HIS PASTPowerful cartel leader Sin Diaz lives a dangerous life filled with secrets and lies, and surrounded by people who claim. flac) FLAC was created by members of Xiph. 04 gb TRACKLIST: CD 1 01. There's a cool aggression to 1983's Rebel Yell, Billy Idol's second album that is equal parts new-wave, metal, punk and pop. 0 aka Mark Bailey joins Roam Recordings with a brand new EP - The Absolute Pain Of Not Being In Your Arms. m3u files from various sources. It splits the WAV image to WAV singletracks according to the EAC CUE and encodes them to FLACs. On 4 December 2009, Absolute Xtreme was replaced on DAB and digital TV by Absolute Radio 80s. Strange Hope Breathe. Fly By Night 13. Everything from Foo Fighters to David Bowie, Oasis, Green Day, Blur, Coldplay, Kings of Leon, Adele, Queen, and more. You're The One For Me_DaybreakA. rar VA-Absolute 70s-3CD-FLAC-2007-LoKET. Synthwave Rider The streets are watching… Absolute Valentine is out for revenge. Various Artists Fela Kuti & Egypt 80. 99/month, making it an absolute steal for listeners in search of a lossless audio streaming service. The compression is lossless, meaning no quality is sacrificed in the process and no data is discarded. #N#David Bowie The 100 Greatest Songs (2015) 320 KBPS. Galantis - No Money 3:09 03. The Dave Berry Breakfast Show. Buy tickets online with Absolute Radio Ticket Store. About Absolute Radio. It all began in the late 80s: KEMISTRY & STORM had had enough of their hometown in middle England and moved down to London. flac 30 MB; 03 Psychedelic Furs, The - Pretty in Pink. The Wizard (Theme From Top Of The Pops) 04. The station rebranded to its current name at 7:45 am on 29 September 2008. The top 10 best audiophile turntables and record players on the market. I get the feeling this has been answered 5 million times already, but here goes: As a producer, to me, the ideal medium is one where I can hear, at a consumer level, what I'm hearing in the control room as I mix. Contact: [email protected] Label: Absolute (2) - 5054197063824,Warner Music Sweden - 5054197063824 • Series: Absolute Music (6) - 80 • Format: 2x, CD Compilation • Country: Sweden. Jason Manford, one of the UK's most loved comedians, is on Absolute Radio every Sunday from 8am. Rebel Rebel. C:\Users\Администратор\Music\David Bowie\2010 - Greatest Hits Part1 CD1\David Bowie - Greatest Hits Part1 CD1. There was always. Bamboo - Colors of the Breeze 3. Let's Spend The Night Together. For anyone grey enough to remember Plone's 'For Beginner Piano', the retro-vintage winks and nods of 'Puzzlewood' will be a big dose of nostalgia. Fischer-Z - Swimming in Thunderstorms Year Of Release: 2019 Format: Flac, Tracks / Scene CDRip Bitrate: lossless Sample Rate: 16bit/44. Never descending into parody or obvious re-enactment Brooks is the absolute master in this field. flac [CTDB TOCID: gV9VUEUrr6BqnsatWsOZZVTg. Absolute First Album is the debut studio album by South Korean girl group T-ara. New album Absolute Dance Spring (2013) FLAC available for download on site losslessalbums. Aug 05, · This is the first Lawrence Arabia album that fully reaches the promise shown by the first three albums, the first that works from start to finish, and the first that edges Milne close to the rarefied air his heroes occupy. rar VA-Absolute 60s-3CD-FLAC-2007-LoKET. 4 out of 5 stars 80. Absolute Zero '2019. The promoting anticipate Absolute 80s began with focused on inspecting at 80s occasions, for example. Laugh off your Sunday morning hangover on Absolute Radio with one of the UK's finest comedians, Jason Manford. 1kHz Audio Channels: 2. New Killer Star 17. Absolute Radio 90s. 1 kHz (Tracks) Artist: Ben Noble. America's Ultimate Oldies Channel. com hosted blogs and archive. GotRadio - Classic 60s. FLAC is a lossless file. Holiday Rap 80s Greatest Hits. Meaningless Planet 4. Ben Noble - Where the Light Comes In (2020) FLAC. The Lavender Lullabye (1:26) 04. "Two Left Feet" is a gem complete with harmonica, "Permanent Midnight" has an 80s feel to it with the rangy guitars and synths in the background and "High and Lonesome" is an earnest, building rocker. flac valerie_claire-im_a_model. Omega by Absolute Valentine, released 19 April 2019 1. Here are a few that are working for me. VA - Joel Whitburn Presents Billboard Number 1s The 80s (2004) [FLAC] VA - Don't Come Back From The Moon (2017) [FLAC] VA - Tomorrowland 2012 The Book Of Wisdom (2012) [FLAC] Styx - Classics Volume 15 (1987) [FLAC] Jimi Hendrix - The Essential Jimi Hendrix Volumes One And Two (1989) [FLAC]. Meaningless Planet 4. 5 includes support for FLAC Internet Radio. FLAC streams consume a massive amount of bandwidth. Contact: [email protected] Starship - Nothings Gonna Stop Us Now 04:21 42. Plated and pressed on 200-gram vinyl by Quality Record Pressings!. ミカヅキBIGWAVE - Pure Heart 幻シンデレラ 4. CD3 (19 / 80:30) 39. Just click on the logo of your favorite internet radio station and the online radio player will start playing immediately. Absolute 80's, Vol. Jennifer Rush - The Power Of Love 04:26 44. The Curse 5. flac Aretha Franklin & George Michael - I Knew You Were Waiting (For Me) (Extended Remix_batch2. Various ‎– Entertainment Weekly Absolute 80s. Death Comes Ripping (The Misfits) Wraith is: Matt Sokol - Vocals & Guitars Mike Szymendera - Drums Chris Petkus - Bass Recorded, mixed and mastered by CJ Rayson. Absolute Zero '2019.